osu file format v14

[General]
AudioFilename: One Direction - Diana.mp3
AudioLeadIn: 1500
PreviewTime: 36434
Countdown: 0
SampleSet: Soft
StackLeniency: 0.3
Mode: 0
LetterboxInBreaks: 0
WidescreenStoryboard: 0

[Editor]
Bookmarks: 109428,125997
DistanceSpacing: 0.5
BeatDivisor: 4
GridSize: 4
TimelineZoom: 1

[Metadata]
Title:Diana
TitleUnicode:Diana
Artist:One Direction
ArtistUnicode:One Direction
Creator:Gero
Version:Midnight Memories
Source:
Tags:Boy Band Irish Columbia Records Syco Music Sony Music Zayn Malik Harry Styles Louis Tomlinson Niall Horan Liam Payne Folk Rock Indie -Bakari-
BeatmapID:383856
BeatmapSetID:156698

[Difficulty]
HPDrainRate:8
CircleSize:4
OverallDifficulty:8
ApproachRate:9
SliderMultiplier:1.6
SliderTickRate:2

[Events]
//Background and Video events
0,0,"BG.jpg",0,0
//Break Periods
2,109628,125397
//Storyboard Layer 0 (Background)
//Storyboard Layer 1 (Fail)
//Storyboard Layer 2 (Pass)
//Storyboard Layer 3 (Foreground)
Sprite,Foreground,Centre,"SB\Info\Mapped by Gero.png",320,240 S,0,111521,,0.4346666 M,0,111521,111870,427,444,451,444 F,0,111521,111870,0,1 F,0,111870,115358,1 F,0,115358,116056,1,0
//Storyboard Sound Samples
//Background Colour Transformations
3,100,163,162,255

[TimingPoints]
591,348.837209302326,4,2,1,70,1,0
620,-125,4,2,1,70,0,0
11608,-100,4,2,2,70,0,0
11753,-100,4,2,2,60,0,0
12102,-100,4,2,2,50,0,0
12451,-100,4,2,2,40,0,0
12800,-100,4,2,2,30,0,0
13149,-100,4,2,2,20,0,0
13497,-100,4,2,2,10,0,0
13846,-100,4,2,2,20,0,0
14195,-100,4,2,2,70,0,0
19951,-100,4,2,2,30,0,0
20038,-100,4,2,2,70,0,0
31114,-100,4,2,2,30,0,0
31201,-100,4,2,2,70,0,0
36521,-100,4,2,1,70,0,0
36608,-100,4,2,2,70,0,0
36870,-83.3333333333333,4,1,1,70,0,1
47945,-83.3333333333333,4,1,1,70,0,0
48032,-83.3333333333333,4,1,1,70,0,1
59195,-125,4,2,1,70,0,0
64428,-125,4,2,2,70,0,0
64777,-100,4,2,2,70,0,0
70184,-100,4,2,2,30,0,0
70271,-100,4,2,2,70,0,0
73323,-100,4,2,2,40,0,0
73410,-100,4,2,2,70,0,0
73672,-100,4,2,2,40,0,0
73759,-100,4,2,2,70,0,0
74021,-100,4,2,2,40,0,0
74108,-100,4,2,2,70,0,0
74370,-100,4,2,2,40,0,0
74457,-100,4,2,2,70,0,0
74544,-100,4,2,2,40,0,0
74631,-100,4,2,2,70,0,0
75067,-100,4,2,2,40,0,0
75154,-100,4,2,2,70,0,0
86753,-100,4,2,1,70,0,0
86841,-100,4,2,2,70,0,0
87102,-83.3333333333333,4,1,1,70,0,1
98178,-83.3333333333333,4,1,1,70,0,0
98265,-83.3333333333333,4,1,1,70,0,1
109428,-100,4,2,1,70,0,0
125997,-100,4,2,2,70,0,0
126172,-100,4,2,3,70,0,0
129311,-100,4,2,2,70,0,0
131724,-200,4,2,2,70,0,0
132451,-200,4,2,4,70,0,0
132538,-200,4,2,2,70,0,0
133149,-200,4,2,4,70,0,0
133236,-200,4,2,2,70,0,0
133846,-200,4,2,4,70,0,0
133934,-200,4,2,2,70,0,0
134195,-200,4,2,1,70,0,0
134282,-200,4,2,2,70,0,0
135242,-200,4,2,4,70,0,0
135329,-200,4,2,2,70,0,0
135939,-200,4,2,4,70,0,0
136027,-200,4,2,2,70,0,0
136986,-200,4,2,1,70,0,0
137335,-83.3333333333333,4,1,1,70,0,1
142829,-83.3333333333333,4,1,1,70,0,0
142916,-83.3333333333333,4,1,1,70,0,1
154079,-100,4,1,1,70,0,0
176375,-125,4,2,1,70,0,0
179195,-125,4,2,4,70,0,0
179544,-125,4,2,4,60,0,0
179893,-125,4,2,4,50,0,0
180242,-125,4,2,4,40,0,0
180591,-125,4,2,4,30,0,0
180939,-125,4,2,4,20,0,0
181288,-125,4,2,4,15,0,0
181637,-125,4,2,4,10,0,0
181986,-125,4,2,4,5,0,0

[Colours]
Combo1 : 182,182,182
Combo2 : 154,196,226
Combo3 : 220,201,175
Combo4 : 199,190,201
Combo5 : 88,174,245

[HitObjects]
336,156,3381,6,0,B|379:109|471:145|455:249|379:267|340:232,1,256,4|2,1:0|0:0,0:0:0:0:
176,156,4777,2,0,B|133:109|41:145|57:249|133:267|172:232,1,256,2|4,0:0|1:0,0:0:0:0:
256,336,5997,1,4,1:0:0:0:
256,48,7218,5,2,0:0:0:0:
176,92,7567,2,0,B|232:124|256:188|256:188|280:124|336:92,1,256,2|2,0:0|0:0,0:0:0:0:
364,267,8963,6,0,B|325:326|250:347|184:320|149:270,2,256,4|2|2,1:0|0:0|0:0,0:0:0:0:
207,179,11056,2,0,B|193:134|235:88|292:101|314:142|305:177,1,192,4|4,1:0|1:0,0:0:0:0:
256,192,11753,12,8,14195,0:0:0:0:
180,54,14544,6,0,L|260:54,1,80,2|0,0:0|0:0,0:0:0:0:
384,122,14893,2,0,L|304:122,1,80,8|2,0:0|0:0,0:0:0:0:
216,122,15242,2,0,L|356:46,1,160,0|8,0:0|0:0,0:0:0:0:
384,122,15765,6,0,L|244:198,1,160,0|0,0:0|0:0,0:0:0:0:
168,242,16288,1,8,0:0:0:0:
88,282,16463,1,2,0:0:0:0:
9,241,16637,2,0,B|-4:266|-4:294|7:317,1,80,0|0,0:0|0:0,0:0:0:0:
88,192,16986,2,0,B|102:167|101:138|89:115,1,80,8|0,0:0|0:0,0:0:0:0:
200,316,17335,6,0,B|207:360|258:386|304:358|312:317,1,160,2|8,0:0|0:0,0:0:0:0:
256,248,17858,1,2,0:0:0:0:
168,242,18032,2,0,L|199:315,1,80,,,0:0:0:0:
312,315,18381,2,0,L|344:242,1,80,8|0,0:0|0:0,0:0:0:0:
332,156,18730,5,2,0:0:0:0:
292,80,18904,2,0,B|256:63|256:63|220:80,1,80,0|8,0:0|0:0,0:0:0:0:
260,156,19253,2,0,B|296:173|296:173|332:156,1,80,2|0,0:0|0:0,0:0:0:0:
376,232,19602,5,0,0:0:0:0:
292,80,19777,1,8,0:0:0:0:
220,232,19951,1,2,0:3:0:0:
392,320,20125,6,0,L|440:164,1,160,2|8,0:0|0:0,0:0:0:0:
372,108,20649,1,2,0:0:0:0:
292,80,20823,2,0,B|324:111|374:113|410:86|424:49,1,160,0|8,0:0|0:0,0:0:0:0:
212,48,21346,6,0,B|180:17|130:15|94:42|80:79,1,160,0|0,0:0|0:0,0:0:0:0:
124,156,21870,1,8,0:0:0:0:
176,228,22044,2,0,B|168:264|168:264|176:308,1,80,2|0,0:0|0:0,0:0:0:0:
256,344,22393,1,0,0:0:0:0:
336,306,22567,2,0,B|344:264|344:264|336:228,1,80,8|0,0:0|0:0,0:0:0:0:
212,48,22916,6,0,B|180:17|130:15|94:42|80:79,1,160,2|8,0:0|0:0,0:0:0:0:
160,116,23439,2,0,B|0:104,1,160,2|0,0:0|0:0,0:0:0:0:
52,200,23963,1,8,0:0:0:0:
128,272,24137,1,0,0:0:0:0:
208,340,24311,6,0,L|285:359,1,80,2|0,0:0|0:0,0:0:0:0:
128,272,24660,2,0,L|108:349,1,80,8|2,0:0|0:0,0:0:0:0:
192,192,25009,2,0,L|114:172,1,80,0|0,0:0|0:0,0:0:0:0:
272,260,25358,2,0,L|291:182,1,80,8|0,0:0|0:0,0:0:0:0:
324,56,25707,6,0,B|299:19|252:7|211:23|189:55,1,160,2|8,0:0|0:0,0:0:0:0:
256,112,26230,1,2,0:0:0:0:
323,168,26404,2,0,B|298:204|252:216|211:200|189:169,1,160,0|8,0:0|0:0,0:0:0:0:
256,112,26928,6,0,L|416:168,1,160,0|0,0:0|0:0,0:0:0:0:
448,244,27451,1,8,0:0:0:0:
508,308,27625,2,0,B|491:332|462:340|437:332,1,80,2|0,0:0|0:0,0:0:0:0:
377,268,27974,2,0,B|393:244|422:235|447:244,1,80,0|8,0:0|0:0,0:0:0:0:
508,308,28323,1,0,0:0:0:0:
256,376,28497,6,0,B|200:393|143:363|120:313,1,160,2|8,0:0|0:0,0:0:0:0:
160,236,29021,1,2,0:0:0:0:
204,160,29195,2,0,B|197:132|181:110|160:96,2,80,0|0|8,0:0|0:0|0:0,0:0:0:0:
256,232,29718,1,0,0:0:0:0:
308,160,29893,2,0,B|315:132|331:110|352:96,2,80,2|0|8,0:0|0:0|0:0,0:0:0:0:
256,88,30416,5,2,0:0:0:0:
160,236,30591,1,0,0:0:0:0:
352,236,30765,1,0,0:0:0:0:
204,160,30939,1,8,0:0:0:0:
256,232,31114,1,2,0:3:0:0:
308,160,31288,6,0,B|388:160|388:160|444:216,1,160,2|8,0:0|0:0,0:0:0:0:
507,279,31811,1,2,0:0:0:0:
448,344,31986,2,0,B|370:344|370:344|324:344|300:304,1,160,0|8,0:0|0:0,0:0:0:0:
64,344,32509,2,0,B|142:344|142:344|188:344|212:304,1,160,0|0,0:0|0:0,0:0:0:0:
256,232,33032,1,8,0:0:0:0:
204,160,33207,6,0,B|168:140|168:140|128:140,1,80,2|0,0:0|0:0,0:0:0:0:
308,160,33556,2,0,B|344:140|344:140|384:140,1,80,0|8,0:0|0:0,0:0:0:0:
256,232,33904,1,0,0:0:0:0:
64,344,34079,6,0,L|36:184,1,160,2|8,0:0|0:0,0:0:0:0:
60,100,34602,1,2,0:0:0:0:
140,220,34777,1,0,0:0:0:0:
148,76,34951,1,0,0:0:0:0:
60,192,35125,1,8,0:0:0:0:
204,160,35300,1,0,0:0:0:0:
308,160,35474,5,2,0:0:0:0:
452,192,35649,1,0,0:0:0:0:
364,76,35823,1,8,0:0:0:0:
372,220,35997,1,2,0:0:0:0:
452,100,36172,1,0,0:0:0:0:
56,40,36521,5,2,0:0:0:0:
56,40,36870,6,0,B|34:66|35:103|56:127,1,95.9999970703126,4|0,0:0|0:0,0:0:0:0:
128,280,37218,2,0,B|149:253|147:216|127:192,1,95.9999970703126,8|0,0:0|0:0,0:0:0:0:
48,332,37567,2,0,B|76:377|133:393|182:371|207:333,1,191.999994140625,2|8,0:0|0:0,0:0:0:0:
256,248,38091,1,0,0:0:0:0:
348,96,38265,5,2,0:0:0:0:
212,12,38439,1,0,0:0:0:0:
164,96,38614,1,8,0:0:0:0:
300,12,38788,1,0,0:0:0:0:
348,96,38963,2,0,B|348:144|348:144|312:180,1,95.9999970703126,2|0,0:0|0:0,0:0:0:0:
164,96,39311,2,0,B|164:144|164:144|200:180,1,95.9999970703126,8|0,0:0|0:0,0:0:0:0:
464,332,39660,6,0,B|436:377|379:393|330:371|305:333,1,191.999994140625,4|8,0:0|0:0,0:0:0:0:
384,280,40184,1,0,0:0:0:0:
304,228,40358,2,0,L|208:228,1,95.9999970703126,2|0,0:0|0:0,0:0:0:0:
400,172,40707,2,0,L|496:172,1,95.9999970703126,8|0,0:0|0:0,0:0:0:0:
292,248,41056,6,0,L|196:248,1,95.9999970703126,2|0,0:0|0:0,0:0:0:0:
416,152,41404,2,0,L|512:152,1,95.9999970703126,8|0,0:0|0:0,0:0:0:0:
384,280,41753,2,0,L|308:96,1,191.999994140625,2|8,0:0|0:0,0:0:0:0:
220,72,42277,1,0,0:0:0:0:
19,20,42451,6,0,B|-25:49|-40:105|-20:154|19:179,1,191.999994140625,4|8,0:0|0:0,0:0:0:0:
88,248,42974,1,0,0:0:0:0:
156,316,43149,2,0,L|252:316,1,95.9999970703126,2|0,0:0|0:0,0:0:0:0:
276,224,43497,2,0,L|180:224,1,95.9999970703126,8|0,0:0|0:0,0:0:0:0:
80,96,43846,5,2,0:0:0:0:
88,248,44021,1,0,0:0:0:0:
176,124,44195,1,8,0:0:0:0:
32,176,44370,1,0,0:0:0:0:
180,224,44544,1,2,0:0:0:0:
80,96,44718,2,0,L|12:28,1,95.9999970703126,2|8,0:0|0:0,0:0:0:0:
88,248,45067,2,0,L|155:315,1,95.9999970703126,2|4,0:0|0:0,0:0:0:0:
256,284,45416,5,0,0:0:0:0:
349,334,45591,2,0,B|384:345|420:333|441:307,1,95.9999970703126,8|0,0:0|0:0,0:0:0:0:
372,148,45939,2,0,B|349:174|350:211|371:236,1,95.9999970703126,2|0,0:0|0:0,0:0:0:0:
436,75,46288,2,0,B|413:50|379:42|349:51,1,95.9999970703126,8|0,0:0|0:0,0:0:0:0:
80,96,46637,6,0,L|12:28,1,95.9999970703126,4|0,0:0|0:0,0:0:0:0:
88,248,46986,2,0,L|155:315,1,95.9999970703126,8|8,0:0|0:0,0:0:0:0:
192,172,47335,2,0,L|0:172,1,191.999994140625,2|8,0:0|0:0,0:0:0:0:
128,324,47858,1,8,0:0:0:0:
396,308,48032,6,0,B|373:282|339:274|309:284,1,95.9999970703126,4|0,0:0|0:0,0:0:0:0:
128,324,48381,2,0,B|151:350|185:358|215:348,1,95.9999970703126,8|0,0:0|0:0,0:0:0:0:
296,376,48730,2,0,L|200:200,1,191.999994140625,2|8,0:0|0:0,0:0:0:0:
156,120,49253,1,0,0:0:0:0:
340,56,49428,6,0,B|388:68|388:68|432:56,1,95.9999970703126,2|0,0:0|0:0,0:0:0:0:
248,120,49777,2,0,B|204:108|204:108|156:120,1,95.9999970703126,8|0,0:0|0:0,0:0:0:0:
80,176,50125,2,0,B|31:224|33:302|80:347,1,191.999994140625,2|8,0:0|0:0,0:0:0:0:
172,380,50649,1,0,0:0:0:0:
424,340,50823,5,4,0:0:0:0:
488,244,50997,1,0,0:0:0:0:
448,96,51172,1,8,0:0:0:0:
384,192,51346,1,0,0:0:0:0:
424,360,51521,1,2,0:0:0:0:
488,264,51695,1,0,0:0:0:0:
448,72,51870,1,8,0:0:0:0:
384,168,52044,1,0,0:0:0:0:
312,260,52218,6,0,L|256:337,1,95.9999970703126,2|0,0:0|0:0,0:0:0:0:
200,236,52567,2,0,L|256:159,1,95.9999970703126,8|0,0:0|0:0,0:0:0:0:
192,60,52916,2,0,L|136:137,1,95.9999970703126,2|0,0:0|0:0,0:0:0:0:
200,236,53265,1,8,0:0:0:0:
255,337,53439,1,0,0:0:0:0:
488,264,53614,6,0,B|424:192|424:192|488:120,1,191.999994140625,4|8,0:0|0:0,0:0:0:0:
404,76,54137,1,0,0:0:0:0:
336,144,54311,1,2,0:0:0:0:
336,240,54486,1,0,0:0:0:0:
404,308,54660,1,8,0:0:0:0:
488,264,54835,1,0,0:0:0:0:
488,120,55009,6,0,B|505:90|503:56|488:28,1,95.9999970703126,2|0,0:0|0:0,0:0:0:0:
404,76,55358,2,0,B|387:105|389:140|404:167,2,95.9999970703126,8|2|0,0:0|0:0|0:0,0:0:0:0:
316,40,55881,1,2,0:0:0:0:
316,40,56056,2,0,L|220:40,1,95.9999970703126,8|2,0:0|0:0,0:0:0:0:
96,192,56404,6,0,B|158:222|195:281|200:343,1,191.999994140625,4|8,0:0|0:0,0:0:0:0:
416,192,56928,2,0,B|354:222|317:281|312:343,1,191.999994140625,2|2,0:0|0:0,0:0:0:0:
256,256,57451,2,0,L|256:152,1,95.9999970703126,8|0,0:0|0:0,0:0:0:0:
208,16,57800,5,4,0:0:0:0:
316,64,57974,1,0,0:0:0:0:
204,44,58149,1,8,0:0:0:0:
312,92,58323,1,8,0:0:0:0:
200,72,58497,2,0,L|104:61,1,95.9999970703126,2|0,0:0|0:0,0:0:0:0:
320,36,58846,2,0,L|415:48,1,95.9999970703126,8|8,0:0|0:0,0:0:0:0:
492,248,59195,6,0,B|448:290|448:364|448:364|381:334|324:356,1,256,4|2,1:0|0:0,0:0:0:0:
20,248,60591,2,0,B|63:290|63:364|63:364|130:334|187:356,1,256,2|4,0:0|1:0,0:0:0:0:
256,240,61811,1,4,1:0:0:0:
256,240,63032,5,2,0:0:0:0:
168,224,63381,2,0,B|177:153|258:109|334:155|344:222,1,256,2|2,0:0|0:0,0:0:0:0:
256,240,64428,1,8,0:0:0:0:
408,20,64777,6,0,L|488:20,1,80,2|0,0:0|0:0,0:0:0:0:
328,60,65125,2,0,L|248:60,1,80,8|2,0:0|0:0,0:0:0:0:
172,108,65474,2,0,B|196:148|244:148|244:148|320:148,1,160,0|8,0:0|0:0,0:0:0:0:
328,60,65997,2,0,B|304:20|256:20|256:20|180:20,1,160,0|0,0:0|0:0,0:0:0:0:
104,64,66521,1,8,0:0:0:0:
28,108,66695,2,0,B|28:148|28:148|0:176,1,80,2|0,0:0|0:0,0:0:0:0:
28,260,67044,2,0,L|92:208,1,80,0|8,0:0|0:0,0:0:0:0:
160,156,67393,1,0,0:0:0:0:
328,60,67567,6,0,B|367:40|415:50|443:85|448:123,1,160,2|8,0:0|0:0,0:0:0:0:
364,144,68091,1,2,0:0:0:0:
280,164,68265,2,0,L|240:88,1,80,,,0:0:0:0:
364,144,68614,2,0,L|404:220,1,80,8|0,0:0|0:0,0:0:0:0:
216,312,68963,5,2,0:0:0:0:
132,340,69137,2,0,B|107:354|79:353|56:340,1,80,0|8,0:0|0:0,0:0:0:0:
95,183,69486,2,0,B|109:208|108:237|96:260,1,80,2|0,0:0|0:0,0:0:0:0:
16,224,69835,5,0,0:0:0:0:
96,96,70009,1,8,0:0:0:0:
186,224,70184,1,2,0:3:0:0:
292,352,70358,6,0,B|346:372|404:344|424:293,1,160,2|8,0:0|0:0,0:0:0:0:
448,208,70881,1,2,0:0:0:0:
409,127,71056,2,0,B|432:110|462:112|484:128,2,80,0|0|8,0:0|0:0|0:0,0:0:0:0:
448,208,71579,2,0,L|328:88,1,160,0|0,0:0|0:0,0:0:0:0:
256,52,72102,1,8,0:0:0:0:
177,95,72277,2,0,B|137:103|137:103|97:95,2,80,2|0|0,0:0|0:0|0:0,0:0:0:0:
335,95,72800,2,0,B|375:103|375:103|415:95,1,80,8|0,0:0|0:0,0:0:0:0:
496,292,73149,5,2,0:0:0:0:
376,356,73323,1,2,0:3:0:0:
256,292,73497,1,8,0:0:0:0:
136,356,73672,1,2,0:3:0:0:
16,292,73846,1,0,0:0:0:0:
136,226,74021,1,2,0:3:0:0:
256,292,74195,1,8,0:0:0:0:
376,226,74370,1,2,0:3:0:0:
256,154,74544,6,0,B|266:127|265:99|255:75,1,80,2|0,0:3|0:3,0:0:0:0:
256,292,74893,2,0,B|245:318|246:346|256:370,1,80,8|2,0:0|0:3,0:0:0:0:
376,226,75242,2,0,B|403:236|430:235|454:225,1,80,0|0,0:0|0:0,0:0:0:0:
136,226,75591,2,0,B|109:215|81:216|57:226,1,80,8|0,0:0|0:0,0:0:0:0:
256,154,75939,5,2,0:0:0:0:
322,95,76114,1,0,0:0:0:0:
388,36,76288,2,0,B|428:36|428:36|464:60,1,80,8|2,0:0|0:0,0:0:0:0:
399,279,76637,2,0,B|359:239|361:175|399:137,1,160,0|8,0:0|0:0,0:0:0:0:
472,344,77160,2,0,B|431:384|367:382|329:344,1,160,,,0:0:0:0:
256,288,77684,1,8,0:0:0:0:
192,228,77858,2,0,B|175:205|177:175|192:153,1,80,2|0,0:0|0:0,0:0:0:0:
320,155,78207,2,0,B|337:179|335:209|319:231,2,80,0|8|0,0:0|0:0|0:0,0:0:0:0:
212,24,78730,6,0,L|55:58,1,160,2|8,0:0|0:0,0:0:0:0:
0,121,79253,1,2,0:0:0:0:
68,176,79428,2,0,B|83:202|82:232|70:256,2,80,0|0|8,0:0|0:0|0:0,0:0:0:0:
0,120,79951,2,0,B|25:157|72:169|113:153|135:121,1,160,,,0:0:0:0:
196,184,80474,1,8,0:0:0:0:
316,312,80649,1,2,0:0:0:0:
316,184,80823,5,0,0:0:0:0:
196,312,80997,1,0,0:0:0:0:
196,184,81172,1,8,0:0:0:0:
316,312,81346,1,0,0:0:0:0:
256,248,81521,6,0,L|256:76,1,160,2|8,0:0|0:0,0:0:0:0:
332,44,82044,1,2,0:0:0:0:
332,44,82218,2,0,B|372:44|372:44|408:68,2,80,0|0|8,0:0|0:0|0:0,0:0:0:0:
180,44,82742,2,0,B|140:44|140:44|104:68,2,80,0|2|0,0:0|0:0|0:0,0:0:0:0:
256,92,83265,1,8,0:0:0:0:
324,144,83439,2,0,B|299:181|252:193|211:177|189:145,1,160,2|0,0:0|0:0,0:0:0:0:
256,92,83963,1,8,0:0:0:0:
332,44,84137,1,0,0:0:0:0:
356,288,84311,6,0,B|363:328|363:328|356:366,1,80,2|0,0:0|0:0,0:0:0:0:
432,240,84660,2,0,B|425:200|425:200|432:160,1,80,8|2,0:0|0:0,0:0:0:0:
360,112,85009,1,0,0:0:0:0:
512,200,85184,1,0,0:0:0:0:
356,288,85358,1,8,0:0:0:0:
256,192,85532,1,0,0:0:0:0:
152,112,85707,5,2,0:0:0:0:
0,200,85881,1,0,0:0:0:0:
156,288,86056,2,0,B|149:328|149:328|155:366,1,80,8|2,0:0|0:0,0:0:0:0:
80,240,86404,2,0,B|87:200|87:200|80:160,2,80,0|0|2,0:0|0:0|0:0,0:0:0:0:
456,40,87102,6,0,B|478:66|477:103|456:127,1,95.9999970703126,4|0,0:0|0:0,0:0:0:0:
384,280,87451,2,0,B|363:253|365:216|385:192,1,95.9999970703126,8|0,0:0|0:0,0:0:0:0:
464,332,87800,2,0,B|436:377|379:393|330:371|305:333,1,191.999994140625,2|8,0:0|0:0,0:0:0:0:
256,248,88323,1,0,0:0:0:0:
164,96,88497,5,2,0:0:0:0:
300,12,88672,1,0,0:0:0:0:
348,96,88846,1,8,0:0:0:0:
212,12,89021,1,0,0:0:0:0:
164,96,89195,2,0,B|164:144|164:144|200:180,1,95.9999970703126,2|0,0:0|0:0,0:0:0:0:
348,96,89544,2,0,B|348:144|348:144|312:180,1,95.9999970703126,8|0,0:0|0:0,0:0:0:0:
48,332,89893,6,0,B|76:377|133:393|182:371|207:333,1,191.999994140625,4|8,0:0|0:0,0:0:0:0:
128,280,90416,1,0,0:0:0:0:
208,228,90591,2,0,L|304:228,1,95.9999970703126,2|0,0:0|0:0,0:0:0:0:
112,172,90939,2,0,L|16:172,1,95.9999970703126,8|0,0:0|0:0,0:0:0:0:
220,248,91288,6,0,L|316:248,1,95.9999970703126,2|0,0:0|0:0,0:0:0:0:
96,152,91637,2,0,L|0:152,1,95.9999970703126,8|0,0:0|0:0,0:0:0:0:
128,280,91986,2,0,L|204:96,1,191.999994140625,2|8,0:0|0:0,0:0:0:0:
292,72,92509,1,0,0:0:0:0:
493,20,92684,6,0,B|537:49|552:105|532:154|493:179,1,191.999994140625,4|8,0:0|0:0,0:0:0:0:
424,248,93207,1,0,0:0:0:0:
356,316,93381,2,0,L|260:316,1,95.9999970703126,2|0,0:0|0:0,0:0:0:0:
236,224,93730,2,0,L|332:224,1,95.9999970703126,8|0,0:0|0:0,0:0:0:0:
432,96,94079,5,2,0:0:0:0:
424,248,94253,1,0,0:0:0:0:
336,124,94428,1,8,0:0:0:0:
480,176,94602,1,0,0:0:0:0:
332,224,94777,1,2,0:0:0:0:
432,96,94951,2,0,L|500:28,1,95.9999970703126,2|8,0:0|0:0,0:0:0:0:
424,248,95300,2,0,L|357:315,1,95.9999970703126,2|4,0:0|0:0,0:0:0:0:
256,284,95649,5,0,0:0:0:0:
163,334,95823,2,0,B|128:345|92:333|71:307,1,95.9999970703126,8|0,0:0|0:0,0:0:0:0:
140,148,96172,2,0,B|163:174|162:211|141:236,1,95.9999970703126,2|0,0:0|0:0,0:0:0:0:
76,75,96521,2,0,B|99:50|133:42|163:51,1,95.9999970703126,8|0,0:0|0:0,0:0:0:0:
432,96,96870,6,0,L|500:28,1,95.9999970703126,4|0,0:0|0:0,0:0:0:0:
424,248,97218,2,0,L|357:315,1,95.9999970703126,8|8,0:0|0:0,0:0:0:0:
320,172,97567,2,0,L|512:172,1,191.999994140625,2|8,0:0|0:0,0:0:0:0:
384,324,98091,1,8,0:0:0:0:
116,308,98265,6,0,B|139:282|173:274|203:284,1,95.9999970703126,4|0,0:0|0:0,0:0:0:0:
384,324,98614,2,0,B|361:350|327:358|297:348,1,95.9999970703126,8|0,0:0|0:0,0:0:0:0:
216,376,98963,2,0,L|312:200,1,191.999994140625,2|8,0:0|0:0,0:0:0:0:
356,120,99486,1,0,0:0:0:0:
172,56,99660,6,0,B|124:68|124:68|80:56,1,95.9999970703126,2|0,0:0|0:0,0:0:0:0:
264,120,100009,2,0,B|308:108|308:108|356:120,1,95.9999970703126,8|0,0:0|0:0,0:0:0:0:
432,176,100358,2,0,B|481:224|479:302|432:347,1,191.999994140625,2|8,0:0|0:0,0:0:0:0:
340,380,100881,1,0,0:0:0:0:
88,340,101056,5,4,0:0:0:0:
24,244,101230,1,0,0:0:0:0:
64,96,101404,1,8,0:0:0:0:
128,192,101579,1,0,0:0:0:0:
88,360,101753,1,2,0:0:0:0:
24,264,101928,1,0,0:0:0:0:
64,72,102102,1,8,0:0:0:0:
128,168,102277,1,0,0:0:0:0:
200,260,102451,6,0,L|256:337,1,95.9999970703126,2|0,0:0|0:0,0:0:0:0:
312,236,102800,2,0,L|256:159,1,95.9999970703126,8|0,0:0|0:0,0:0:0:0:
320,60,103149,2,0,L|376:137,1,95.9999970703126,2|0,0:0|0:0,0:0:0:0:
312,236,103497,1,8,0:0:0:0:
257,337,103672,1,0,0:0:0:0:
24,264,103846,6,0,B|88:192|88:192|24:120,1,191.999994140625,4|8,0:0|0:0,0:0:0:0:
108,76,104370,1,0,0:0:0:0:
176,144,104544,1,2,0:0:0:0:
176,240,104718,1,0,0:0:0:0:
108,308,104893,1,8,0:0:0:0:
24,264,105067,1,0,0:0:0:0:
24,120,105242,6,0,B|7:90|9:56|24:28,1,95.9999970703126,2|0,0:0|0:0,0:0:0:0:
108,76,105591,2,0,B|125:105|123:140|108:167,2,95.9999970703126,8|2|0,0:0|0:0|0:0,0:0:0:0:
196,40,106114,1,2,0:0:0:0:
196,40,106288,2,0,L|292:40,1,95.9999970703126,8|2,0:0|0:0,0:0:0:0:
416,192,106637,6,0,B|354:222|317:281|312:343,1,191.999994140625,4|8,0:0|0:0,0:0:0:0:
96,192,107160,2,0,B|158:222|195:281|200:343,1,191.999994140625,2|2,0:0|0:0,0:0:0:0:
256,256,107684,2,0,L|256:152,1,95.9999970703126,8|0,0:0|0:0,0:0:0:0:
304,16,108032,5,4,0:0:0:0:
196,64,108207,1,0,0:0:0:0:
308,44,108381,1,8,0:0:0:0:
200,92,108556,1,8,0:0:0:0:
312,72,108730,2,0,L|408:61,1,95.9999970703126,2|0,0:0|0:0,0:0:0:0:
192,36,109079,2,0,L|97:48,1,95.9999970703126,8|8,0:0|0:0,0:0:0:0:
20,248,109428,5,6,0:0:0:0:
72,260,125997,5,4,0:3:0:0:
124,332,126172,2,0,L|92:164,1,160,2|8,0:0|0:0,0:0:0:0:
156,112,126695,1,0,0:0:0:0:
218,49,126870,2,0,L|300:32,1,80,2|0,0:0|0:0,0:0:0:0:
418,91,127218,2,0,L|340:108,1,80,8|4,0:0|0:3,0:0:0:0:
476,22,127567,6,0,B|512:47|524:94|507:134|476:156,1,160,4|8,0:3|0:0,0:0:0:0:
404,212,128091,1,0,0:0:0:0:
324,252,128265,2,0,L|228:252,2,80,2|0|8,0:0|0:0|0:0,0:0:0:0:
404,212,128788,1,4,0:3:0:0:
385,121,128963,6,0,L|488:244,1,160,4|8,0:3|1:2,0:0:0:0:
331,336,129660,2,0,B|282:364|224:361|180:335,1,160,0|8,0:0|1:2,0:0:0:0:
24,244,130358,2,0,L|126:121,1,160,0|8,0:0|1:2,0:0:0:0:
256,244,131056,1,8,1:2:0:0:
4,136,131753,6,0,B|80:136|128:88|128:88|128:264|128:264|104:300|52:300|52:300|212:300,1,560,4|2,1:0|0:0,0:0:0:0:
300,300,134544,2,0,B|340:300|340:300|416:300|468:196|416:92|340:92|340:92|300:92|300:92|300:192,1,480,4|4,1:0|1:0,0:0:0:0:
294,198,136986,1,2,0:0:0:0:
96,272,137335,6,0,B|51:244|34:188|55:138|94:113,1,191.999994140625,4|8,0:0|0:0,0:0:0:0:
188,60,137858,1,0,0:0:0:0:
284,20,138032,2,0,B|332:20|332:20|368:56,1,95.9999970703126,2|0,0:0|0:0,0:0:0:0:
356,176,138381,2,0,L|288:108,1,95.9999970703126,8|0,0:0|0:0,0:0:0:0:
96,196,138730,5,2,0:0:0:0:
30,126,138904,1,0,0:0:0:0:
160,264,139079,1,8,0:0:0:0:
197,177,139253,1,0,0:0:0:0:
127,356,139428,1,2,0:0:0:0:
62,286,139602,2,0,L|-8:216,1,95.9999970703126,2|0,0:0|0:0,0:0:0:0:
129,109,139951,2,0,L|197:177,1,95.9999970703126,2|4,0:0|0:0,0:0:0:0:
316,332,140300,5,0,0:0:0:0:
408,352,140474,2,0,B|443:363|479:351|500:325,1,95.9999970703126,8|0,0:0|0:0,0:0:0:0:
316,332,140823,2,0,B|281:321|245:333|224:359,2,95.9999970703126,2|0|8,0:0|0:0|0:0,0:0:0:0:
408,352,141346,1,0,0:0:0:0:
504,192,141521,6,0,L|436:104,1,95.9999970703126,4|0,0:0|0:0,0:0:0:0:
313,100,141870,2,0,L|372:176,1,95.9999970703126,8|0,0:0|0:0,0:0:0:0:
388,40,142218,2,0,L|232:156,1,191.999994140625,2|8,0:0|0:0,0:0:0:0:
160,216,142742,1,8,0:0:0:0:
318,328,142916,6,0,B|368:328|368:328|408:352,1,95.9999970703126,4|0,0:0|0:0,0:0:0:0:
193,328,143265,2,0,B|144:328|144:328|104:352,1,95.9999970703126,8|0,0:0|0:0,0:0:0:0:
256,252,143614,2,0,B|280:180|256:160|228:136|256:64,1,191.999994140625,2|8,0:0|0:0,0:0:0:0:
344,116,144137,1,0,0:0:0:0:
160,216,144311,6,0,B|116:204|116:204|68:216,1,95.9999970703126,2|0,0:0|0:0,0:0:0:0:
344,116,144660,2,0,B|392:128|392:128|436:116,1,95.9999970703126,8|0,0:0|0:0,0:0:0:0:
392,32,145009,2,0,L|388:232,1,191.999994140625,2|8,0:0|0:0,0:0:0:0:
448,300,145532,1,0,0:0:0:0:
256,228,145707,5,4,0:0:0:0:
200,308,145881,1,0,0:0:0:0:
187,159,146056,1,8,0:0:0:0:
119,91,146230,1,0,0:0:0:0:
256,92,146404,1,2,0:0:0:0:
324,24,146579,1,0,0:0:0:0:
325,159,146753,1,8,0:0:0:0:
393,227,146928,1,0,0:0:0:0:
199,308,147102,6,0,B|166:317|133:306|111:283,1,95.9999970703126,2|0,0:0|0:0,0:0:0:0:
312,308,147451,2,0,B|345:299|378:309|400:332,2,95.9999970703126,8|0|2,0:0|0:0|0:0,0:0:0:0:
256,228,147974,1,0,0:0:0:0:
187,159,148149,1,8,0:0:0:0:
256,92,148323,1,0,0:0:0:0:
393,227,148497,6,0,B|442:247|498:225|523:176|516:130,1,191.999994140625,4|8,0:0|0:0,0:0:0:0:
456,51,149021,1,0,0:0:0:0:
424,139,149195,1,2,0:0:0:0:
320,168,149370,1,2,0:0:0:0:
352,80,149544,1,0,0:0:0:0:
393,227,149718,1,0,0:0:0:0:
352,316,149893,6,0,L|260:344,1,95.9999970703126,2|0,0:0|0:0,0:0:0:0:
144,280,150242,2,0,L|236:252,2,95.9999970703126,8|2|0,0:0|0:0|0:0,0:0:0:0:
75,211,150765,1,2,0:0:0:0:
75,115,150939,1,8,0:0:0:0:
143,46,151114,1,2,0:0:0:0:
332,28,151288,6,0,B|424:28|424:28|480:112,1,191.999994140625,4|8,0:0|0:0,0:0:0:0:
384,272,151811,2,0,B|331:192|331:192|384:112,1,191.999994140625,2|2,0:0|0:0,0:0:0:0:
480,276,152335,2,0,L|424:356,1,95.9999970703126,8|0,0:0|0:0,0:0:0:0:
256,356,152684,5,4,0:0:0:0:
188,288,152858,1,0,0:0:0:0:
256,88,153032,1,8,0:0:0:0:
324,156,153207,1,8,0:0:0:0:
256,224,153381,2,0,L|188:156,1,95.9999970703126,2|0,0:0|0:0,0:0:0:0:
324,20,153730,2,0,L|391:87,1,95.9999970703126,8|8,0:0|0:0,0:0:0:0:
468,284,154079,6,0,B|467:330|432:367|385:372|349:353,1,160,4|8,0:0|0:0,0:0:0:0:
380,272,154602,1,0,0:0:0:0:
432,200,154777,2,0,B|458:188|486:190|509:202,1,80,2|0,0:0|0:0,0:0:0:0:
354,355,155125,2,0,B|328:367|300:365|277:353,1,80,8|0,0:0|0:0,0:0:0:0:
176,152,155474,6,0,B|112:152|104:192|96:232|48:232,1,160,2|8,0:0|0:0,0:0:0:0:
48,152,155997,2,0,B|96:152|104:192|112:232|176:232,1,160,2|2,0:0|0:0,0:0:0:0:
256,192,156521,1,8,0:0:0:0:
336,152,156695,1,0,0:0:0:0:
488,68,156870,6,0,L|428:8,1,80,4|0,0:0|0:0,0:0:0:0:
336,52,157218,2,0,L|256:40,1,80,8|8,0:0|0:0,0:0:0:0:
184,120,157567,2,0,B|145:161|146:224|183:263,1,160,2|8,0:0|0:0,0:0:0:0:
256,320,158091,1,0,0:0:0:0:
464,364,158265,6,0,L|500:288,1,80,2|0,0:0|0:0,0:0:0:0:
466,159,158614,2,0,L|432:232,1,80,8|2,0:0|0:0,0:0:0:0:
388,120,158963,2,0,L|422:47,1,80,0|2,0:0|0:0,0:0:0:0:
340,12,159311,1,8,0:0:0:0:
256,40,159486,1,0,0:0:0:0:
72,140,159660,6,0,B|28:142|-3:192|28:242|72:244,1,160,4|8,0:0|0:0,0:0:0:0:
160,256,160184,2,0,B|118:239|72:252|44:285|36:323,1,160,2|2,0:0|0:0,0:0:0:0:
124,340,160707,2,0,L|208:340,1,80,8|8,0:0|0:0,0:0:0:0:
384,340,161056,6,0,B|424:340|424:340|452:312,1,80,2|0,0:0|0:0,0:0:0:0:
384,256,161404,1,8,0:0:0:0:
444,192,161579,1,0,0:0:0:0:
384,128,161753,1,2,0:0:0:0:
384,44,161928,2,0,B|424:44|424:44|452:72,2,80,2|8|2,0:0|0:0|0:0,0:0:0:0:
176,104,162451,6,0,B|96:104|96:104|56:104|24:136,1,160,4|8,0:0|0:0,0:0:0:0:
24,248,162974,2,0,B|56:280|96:280|96:280|176:280,1,160,2|2,0:0|0:0,0:0:0:0:
184,192,163497,2,0,L|96:192,1,80,8|8,0:0|0:0,0:0:0:0:
328,192,163846,6,0,L|416:192,1,80,2|0,0:0|0:0,0:0:0:0:
256,120,164195,2,0,L|256:32,1,80,8|8,0:0|0:0,0:0:0:0:
256,264,164544,2,0,L|256:352,1,80,2|0,0:0|0:0,0:0:0:0:
184,192,164893,2,0,L|96:192,1,80,8|8,0:0|0:0,0:0:0:0:
336,348,165242,6,0,B|370:368|414:350|428:310|414:276|389:261,1,160,4|8,0:0|0:0,0:0:0:0:
328,192,165765,1,0,0:0:0:0:
408,156,165939,2,0,L|488:156,1,80,2|0,0:0|0:0,0:0:0:0:
344,92,166288,2,0,L|416:52,1,80,8|0,0:0|0:0,0:0:0:0:
256,112,166637,6,0,L|264:20,2,80,2|0|8,0:0|0:0|0:0,0:0:0:0:
172,140,167160,2,0,B|124:164|94:139|68:116|16:140,1,160,2|2,0:0|0:0,0:0:0:0:
52,220,167684,1,8,0:0:0:0:
136,60,167858,1,0,0:0:0:0:
212,220,168032,6,0,B|212:248|212:248|220:268|220:268|220:300,1,80,4|0,0:0|0:0,0:0:0:0:
296,344,168381,1,8,0:0:0:0:
384,352,168556,1,0,0:0:0:0:
464,316,168730,2,0,B|430:347|378:344|345:310|340:270,1,160,2|8,0:0|0:0,0:0:0:0:
422,238,169253,1,0,0:0:0:0:
324,64,169428,6,0,B|299:27|252:15|211:31|189:63,1,160,2|8,0:0|0:0,0:0:0:0:
256,120,169951,1,2,0:0:0:0:
336,152,170125,2,0,B|365:151|389:134|400:109,1,80,0|2,0:0|0:0,0:0:0:0:
176,152,170474,2,0,B|147:151|123:134|112:109,1,80,8|0,0:0|0:0,0:0:0:0:
256,120,170823,2,0,B|256:184|256:184|262:192|262:192|250:192|250:192|256:200|256:200|256:264,1,160,2|8,0:0|0:0,0:0:0:0:
188,320,171346,2,0,B|213:357|260:369|301:353|323:321,1,160,2|2,0:0|0:0,0:0:0:0:
364,240,171870,5,8,0:0:0:0:
301,177,172044,1,0,0:0:0:0:
211,177,172218,1,2,0:0:0:0:
148,240,172393,1,0,0:0:0:0:
122,155,172567,2,0,B|126:126|145:103|171:94,1,80,8|0,0:0|0:0,0:0:0:0:
390,155,172916,2,0,B|386:126|367:103|341:94,2,80,2|2|8,0:0|0:0|0:0,0:0:0:0:
364,240,173439,1,2,0:0:0:0:
64,220,173614,6,0,B|27:195|15:148|31:107|63:85,1,160,4|8,0:0|0:0,0:0:0:0:
126,21,174137,2,0,L|287:21,1,160,2|2,0:0|0:0,0:0:0:0:
374,21,174660,2,0,B|414:21|414:21|444:51,1,80,8|8,0:0|0:0,0:0:0:0:
256,148,175009,5,6,0:0:0:0:
194,294,175184,1,0,0:0:0:0:
194,210,175358,1,8,0:0:0:0:
256,360,175532,1,8,0:0:0:0:
318,210,175707,1,2,0:0:0:0:
318,294,175881,1,0,0:0:0:0:
256,148,176056,1,8,0:0:0:0:
194,294,176230,1,8,0:0:0:0:
352,128,176404,6,0,B|331:60|252:27|181:65|161:125,2,256,4|2|2,1:0|0:0|0:0,0:0:0:0:
208,272,178497,2,0,B|193:317|235:364|292:352|314:310|305:275,1,192,4|4,1:0|1:0,0:0:0:0:
256,192,179195,12,0,181986,0:0:0:0:
